Fórum pre všetkých
Would you like to react to this message? Create an account in a few clicks or log in to continue.



 
DomovDomov  PortálPortál  HľadaťHľadať  RegistráciaRegistrácia  PrihláseniePrihlásenie  

 

 Yes Man / Yes Man (2008)

Goto down 
AutorSpráva
Tempo
Administrátor
Administrátor
Tempo

Počet príspevkov : 548
Age : 25
Location : Krpelany
Registration date : 13.11.2008

Yes Man / Yes Man (2008) Empty
OdoslaťPredmet: Yes Man / Yes Man (2008)   Yes Man / Yes Man (2008) EmptyPi máj 29, 2009 4:58 pm

Yes Man / Yes Man (2008) Hamj

Yes Man / Yes Man (2008) 13145

Jim Carrey se ve filmu Yes Man představí v roli Carla Allena. Ten uplatňuje poněkud zvláštní techniku duševního zdraví. Technika stojí a padá s velmi jednoduchým pravidlem: říci své ano všemu, co mu v životě přijde do cesty. Carlův život se silou jediného slova zpočátku nečekaně změní, brzy však zjistí, že bezmezné otevírání se všem možnostem pro něj v konečném důsledku může být nebezpečné…

Format : AVI
Format/Info : Audio Video Interleave
File size : 700 MiB
Duration : 1h 40mn
Overall bit rate : 978 Kbps
Writing application : VirtualDubMod 1.5.10.2 (build 2540/release)
Writing library : VirtualDubMod build 2540/release

Video
Format : MPEG-4 Visual
Format profile : Streaming Video@L1
Format settings, BVOP : Yes
Format settings, QPel : No
Format settings, GMC : No warppoints
Format settings, Matrix : Default
Codec ID : XVID
Codec ID/Hint : XviD
Duration : 1h 40mn
Bit rate : 835 Kbps
Width : 640 pixels
Height : 256 pixels
Display aspect ratio : 2.500
Frame rate : 25.000 fps
Resolution : 24 bits
Colorimetry : 4:2:0
Scan type : Progressive
Bits/(Pixel*Frame) : 0.204
Stream size : 597 MiB (85%)
Writing library : XviD 1.2.1 (UTC 2008-12-04)

Audio
Format : MPEG Audio
Format version : Version 1
Format profile : Layer 3
Codec ID : 55
Codec ID/Hint : MP3
Duration : 1h 40mn
Bit rate mode : Variable
Bit rate : 131 Kbps
Channel(s) : 2 channels
Sampling rate : 48.0 KHz
Resolution : 16 bits
Stream size : 93.4 MiB (13%)
Alignment : Aligned on interleaves
Interleave, duration : 24 ms (0.60 video frame)
Interleave, preload duration : 520 ms


Yes Man / Yes Man (2008) 693927

kód:
http://download.cz.hellshare.com/yesman-trzr.avi/344680

kód:
http://netload.in/dateiKCLCeGNJGr/Yes.Man.2008.DVDRip.XviD.CZ-TreZzoR.part1.rar.htm
http://netload.in/datei3YvzmMVJ8C/Yes.Man.2008.DVDRip.XviD.CZ-TreZzoR.part2.rar.htm

kód:
http://share-rapid.com/stahuj/174163/yesman-trzr.avi

kód:
http://rapidshare.com/files/233008407/Yes.Man.2008.DVDRip.XviD.CZ-TreZzoR.part1.rar.html
http://rapidshare.com/files/233008816/Yes.Man.2008.DVDRip.XviD.CZ-TreZzoR.part2.rar.html
http://rapidshare.com/files/233008790/Yes.Man.2008.DVDRip.XviD.CZ-TreZzoR.part3.rar.html
http://rapidshare.com/files/233008491/Yes.Man.2008.DVDRip.XviD.CZ-TreZzoR.part4.rar.html


Yes Man / Yes Man (2008) 490848 NO PASS

_________________
Yes Man / Yes Man (2008) Vazkabd2gr8
Návrat hore Goto down
 
Yes Man / Yes Man (2008)
Návrat hore 
Strana 1 z 1

Povolenie tohoto fóra:Nemôžete odpovedať na témy v tomto fóre.
Fórum pre všetkých :: Filmy :: Filmy s dabingom-
Prejdi na: